Enable / Włącz Javascript
 Widok 
 Kategorie 
 Nitro Torrent w sieci 
 Top 10 użytkowników 
 Ucho Prezesa S03E06 (ODC. 36) - Węgierska ruletka [1080p.WEB-DL.H.264.AC3] [PL]

Ucho Prezesa S03E06 (ODC. 36) - Węgierska ruletka [1080p.WEB-DL.H.264.AC3] [PL]
Kategoria: » » » »
Dodane: 19/04/2018
Rozmiar: 1.04 GB
Uploader: Lukarusi (1)
seed(ów): 154
leecher(ów): 69
Pobrane: 372
Komentarzy: 0
Pobierz Torrent Pobierz Torrent
Pobierz [Magnet] Pobierz [Magnet]

Obserwuj
Raportuj
Info

produkcja: PL
gatunek: Komedia
twórca: Robert Górski
reżyseria: Tadeusz Śliwa
czas trwania: ok. 18 min.

Opis

Satyryczny serial o polskiej polityce rozgrywa się w wyobrażonym gabinecie prezesa, gdzie pani Basia i Mariusz troszczą się o prezesa, jak tylko potrafią. W każdym odcinku gabinet odwiedzają goście, którzy chcieliby szepnąć coś prezesowi na ucho.

Obsada

Robert Górski - Prezes Jarosław
Mikołaj Cieślak - Mariusz
Izabela Dąbrowska - pani Basia
Michał Czernecki - prezes telewizji Jacek
Robert Majewski - prezes Rady Mediów Narodowych
Paweł Koślik - prezydent
Wojciech Kalarus - Antoni, minister wojny
Grzegorz Ciągardlak - Misio
Sebastian Stankiewicz - pan Tomek, syn pani Basi
Sebastian Konrad - wicepremier, minister rozwoju
Katarzyna Żak - Jola pielęgniarka
Agnieszka Wosińska - rzecznik Beata
Adam Krawczuk - Adam od PR-u
Magdalena Smalara - Ania, minister edukacji

Dane Techniczne

Format : Matroska
Format version : Version 4 / Version 2
File size : 1.04 GiB
Duration : 17 min 43 s
Overall bit rate : 8 368 kb/s
Encoded date : UTC 2018-04-19 05:16:23

Video
ID : 1
Format : AVC
Format/Info : Advanced Video Codec
Format profile : Baseline@L4
Format settings, CABAC : No
Format settings, RefFrames : 1 frame
Format settings, GOP : M=1, N=60
Codec ID : V_MPEG4/ISO/AVC
Duration : 17 min 43 s
Bit rate : 7 982 kb/s
Width : 1 920 pixels
Height : 1 080 pixels
Display aspect ratio : 16:9
Frame rate mode : Constant
Frame rate : 29.970 (29970/1000) FPS
Original frame rate : 29.970 (30000/1001) FPS
Color space : YUV
Chroma subsampling : 4:2:0
Bit depth : 8 bits
Scan type : Progressive
Bits/(Pixel*Frame) : 0.128
Stream size : 1 012 MiB (95%)

Audio
ID : 2
Format : AC-3
Format/Info : Audio Coding 3
Format settings, Endianness : Big
Codec ID : A_AC3
Duration : 17 min 43 s
Bit rate mode : Constant
Bit rate : 384 kb/s
Channel(s) : 2 channels
Channel positions : Front: L R
Sampling rate : 48.0 kHz
Frame rate : 31.250 FPS (1536 SPF)
Bit depth : 16 bits
Compression mode : Lossy
Stream size : 48.7 MiB (5%)
Language : Polish
Service kind : Complete Main
Dostępne napisy
Brak napisów
Szczegóły torrenta
Tracker http://tracker.vanitycore.co:6969/announce
Multitracker [ Pokaż ]
Kategoria: » » » » [Zgłoś błąd]
Dodane 19-04-2018
Podziękowali:
1 użytkownik 
[ Pokaż ]
Podziękuj!
Pokaż / Ukryj pliki:
Nazwa pliku Rozmiar
Ucho Prezesa S03E06 (ODC. 36) - Węgierska ruletka [1080p.WEB-DL.H.264.AC3] [PL].mkv 1.04 GB
1 plik
Brak komentarzy...