Enable / Włącz Javascript
 Widok 
 Kategorie 
 Nitro Torrent w sieci 
 Top 10 użytkowników 
 Kobiety mafii S01E02 - Masz minutę [480p.WEB-DL.H.264.AC3] [PL]

Kobiety mafii S01E02 - Masz minutę [480p.WEB-DL.H.264.AC3] [PL]
Kategoria: » » » »
Dodane: 06/06/2018
Rozmiar: 817.95 MB
Uploader: Lukarusi (1)
seed(ów): 166
leecher(ów): 44
Pobrane: 273
Komentarzy: 0
Pobierz Torrent Pobierz Torrent
Pobierz [Magnet] Pobierz [Magnet]

Obserwuj
Raportuj
Info

produkcja: Polska
gatunek: Sensacyjny
reżyseria: Patryk Vega
scenariusz: Patryk Vega, Olaf Olszewski
zdjęcia: Mirosła Kuba Brożek, Norbert Modrzejewski
muzyka: Łukasz Targosz
czas trwania: ok. 41 min.

Opis

"Kobiety mafii" to serial rozszerzający fabułę filmu Patryka Vegi pod tym samym tytułem. Po brawurowo przeprowadzonej akcji agentka ABW, Bela, podejmuje się nowego zadania. Pracując pod przykrywką, zostaje "tajniakiem" w grupie przestępczej dowodzonej przez bossa warszawskiego półświatka, Padrino. Bohaterka wchodzi coraz głębiej w świat przestępców. Spotyka kolejnych członków grupy, z którymi zaczyna ją łączyć więź emocjonalna. Bela poznaje również kobiety, związane z groźnymi gangsterami. Wkrótce losy wszystkich z nich się przecinają. Panie muszą zacząć współpracować, aby przetrwać w bezwzględnym świecie bandytów.

Obsada

Olga Bołądź - "Bela"
Agnieszka Dygant - Daria "Niania"
Aleksandra Popławska - "Siekiera"
Katarzyna Warnke - "Spuchnięta Anka"
Julia Wieniawa-Narkiewicz - "Futro"
Sebastian Fabijański - "Cieniu"
Piotr Stramowski - "Żywy"
Bogusław Linda - "Padrino"
Tomasz Oświeciński - "Milimetr"
Janusz Chabior - Adam

Dane Techniczne

Format : Matroska
Format version : Version 4 / Version 2
File size : 818 MiB
Duration : 40 min 41 s
Overall bit rate mode : Variable
Overall bit rate : 2 810 kb/s
Encoded date : UTC 2018-06-06 02:39:43

Video
ID : 1
Format : AVC
Format/Info : Advanced Video Codec
Format profile : High@L3.1
Format settings : CABAC / 5 Ref Frames
Format settings, CABAC : Yes
Format settings, ReFrames : 5 frames
Codec ID : V_MPEG4/ISO/AVC
Duration : 40 min 41 s
Bit rate mode : Variable
Bit rate : 2 424 kb/s
Maximum bit rate : 4 500 kb/s
Width : 720 pixels
Height : 300 pixels
Display aspect ratio : 2.35:1
Frame rate mode : Constant
Frame rate : 29.970 (30000/1001) FPS
Color space : YUV
Chroma subsampling : 4:2:0
Bit depth : 8 bits
Scan type : Progressive
Bits/(Pixel*Frame) : 0.374
Stream size : 706 MiB (86%)
Color range : Limited
Color primaries : BT.709
Transfer characteristics : BT.709
Matrix coefficients : BT.709

Audio
ID : 2
Format : AC-3
Format/Info : Audio Coding 3
Codec ID : A_AC3
Duration : 40 min 41 s
Bit rate mode : Constant
Bit rate : 384 kb/s
Channel(s) : 2 channels
Channel positions : Front: L R
Sampling rate : 48.0 kHz
Frame rate : 31.250 FPS (1536 SPF)
Bit depth : 16 bits
Compression mode : Lossy
Stream size : 112 MiB (14%)
Language : Polish
Service kind : Complete Main
Dostępne napisy
Brak napisów
Szczegóły torrenta
Tracker http://tracker.vanitycore.co:6969/announce
Multitracker [ Pokaż ]
Kategoria: » » » » [Zgłoś błąd]
Dodane 06-06-2018
Podziękowali:
0 użytkowników 
Podziękuj!
Pokaż / Ukryj pliki:
Nazwa pliku Rozmiar
Kobiety mafii S01E02 - Masz minutę [480p.WEB-DL.H.264.AC3] [PL].mkv 817.95 MB
1 plik
Brak komentarzy...